osu file format v14

[General]
AudioFilename: 29 Jingle Bells 765 Version.mp3
AudioLeadIn: 1500
PreviewTime: 40102
Countdown: 0
SampleSet: Normal
StackLeniency: 0.7
Mode: 1
LetterboxInBreaks: 0
WidescreenStoryboard: 0

[Editor]
DistanceSpacing: 0.9
BeatDivisor: 4
GridSize: 4
TimelineZoom: 1

[Metadata]
Title:Jingle Bells 765 Version
TitleUnicode:ジングルベル第765番
Artist:Masubuchi Yuuji
ArtistUnicode:増渕裕二
Creator:DakeDekaane
Version:Oni
Source:太鼓の達人
Tags:Taiko no Tatsujin Christmas Folk
BeatmapID:560082
BeatmapSetID:242688

[Difficulty]
HPDrainRate:6
CircleSize:5
OverallDifficulty:6
ApproachRate:5
SliderMultiplier:1.4
SliderTickRate:2

[Events]
//Background and Video events
0,0,"Masubuchi Yuuji - Jingle Bells 765 Version - Background.png",0,-50
//Break Periods
//Storyboard Layer 0 (Background)
//Storyboard Layer 1 (Fail)
//Storyboard Layer 2 (Pass)
//Storyboard Layer 3 (Foreground)
//Storyboard Sound Samples

[TimingPoints]
514,428.571428571429,4,1,0,70,1,0
2228,428.571428571429,5,1,0,70,1,0
4370,428.571428571429,4,1,0,70,1,0
40155,-100,4,1,0,70,0,1
57512,-100,4,1,0,70,0,0
60941,-100,4,1,0,70,0,1
64370,-100,4,1,0,70,0,0

[HitObjects]
240,188,514,5,8,0:0:0:0:
240,188,728,1,8,0:0:0:0:
240,188,942,1,8,0:0:0:0:
240,188,1371,1,8,0:0:0:0:
240,188,1585,1,8,0:0:0:0:
240,188,1799,1,8,0:0:0:0:
240,188,2228,1,0,0:0:0:0:
240,188,2442,1,8,0:0:0:0:
240,188,2656,1,0,0:0:0:0:
240,188,2871,1,8,0:0:0:0:
240,188,2978,1,8,0:0:0:0:
240,188,4156,1,0,0:0:0:0:
240,188,4263,1,0,0:0:0:0:
240,188,4370,1,0,0:0:0:0:
240,188,4584,1,8,0:0:0:0:
240,188,4798,1,0,0:0:0:0:
240,188,5012,1,0,0:0:0:0:
240,188,5227,1,8,0:0:0:0:
240,188,5870,1,0,0:0:0:0:
240,188,5977,1,0,0:0:0:0:
240,188,6084,1,0,0:0:0:0:
240,188,6298,1,8,0:0:0:0:
240,188,6512,1,0,0:0:0:0:
240,188,6727,1,8,0:0:0:0:
240,188,6941,1,0,0:0:0:0:
240,188,7584,1,0,0:0:0:0:
240,188,7691,1,0,0:0:0:0:
240,188,7798,1,0,0:0:0:0:
240,188,8012,1,8,0:0:0:0:
240,188,8227,1,8,0:0:0:0:
240,188,8441,1,0,0:0:0:0:
240,188,8655,1,0,0:0:0:0:
240,188,9298,1,8,0:0:0:0:
240,188,9405,1,8,0:0:0:0:
240,188,9512,1,8,0:0:0:0:
240,188,9727,1,8,0:0:0:0:
240,188,9941,1,0,0:0:0:0:
240,188,10155,1,0,0:0:0:0:
240,188,10370,1,8,0:0:0:0:
240,188,10584,1,8,0:0:0:0:
240,188,10691,1,8,0:0:0:0:
240,188,10798,1,0,0:0:0:0:
240,188,11012,1,0,0:0:0:0:
240,188,11120,1,0,0:0:0:0:
240,188,11227,1,0,0:0:0:0:
240,188,11441,1,8,0:0:0:0:
240,188,11655,1,0,0:0:0:0:
240,188,11870,1,0,0:0:0:0:
240,188,12084,1,8,0:0:0:0:
240,188,12727,1,0,0:0:0:0:
240,188,12834,1,0,0:0:0:0:
240,188,12941,1,0,0:0:0:0:
240,188,13155,1,8,0:0:0:0:
240,188,13370,1,0,0:0:0:0:
240,188,13584,1,8,0:0:0:0:
240,188,13798,1,0,0:0:0:0:
240,188,14441,1,0,0:0:0:0:
240,188,14548,1,0,0:0:0:0:
240,188,14655,1,0,0:0:0:0:
240,188,14870,1,8,0:0:0:0:
240,188,15084,1,0,0:0:0:0:
240,188,15298,1,0,0:0:0:0:
240,188,15512,1,8,0:0:0:0:
240,188,15727,1,8,0:0:0:0:
240,188,15941,1,8,0:0:0:0:
240,188,16262,1,8,0:0:0:0:
240,188,16370,1,0,0:0:0:0:
240,188,16584,1,8,0:0:0:0:
240,188,16798,1,0,0:0:0:0:
240,188,17012,1,0,0:0:0:0:
240,188,17227,1,8,0:0:0:0:
240,188,17655,1,12,0:0:0:0:
240,188,18084,1,8,0:0:0:0:
240,188,18298,1,0,0:0:0:0:
240,188,18405,1,8,0:0:0:0:
240,188,18620,1,0,0:0:0:0:
240,188,18727,1,8,0:0:0:0:
240,188,18834,1,0,0:0:0:0:
240,188,18941,1,8,0:0:0:0:
240,188,19155,1,0,0:0:0:0:
240,188,19262,1,8,0:0:0:0:
240,188,19477,1,0,0:0:0:0:
240,188,19584,1,8,0:0:0:0:
240,188,19691,1,8,0:0:0:0:
240,188,19798,1,0,0:0:0:0:
240,188,20012,1,8,0:0:0:0:
240,188,20120,1,0,0:0:0:0:
240,188,20334,1,8,0:0:0:0:
240,188,20441,1,0,0:0:0:0:
240,188,20548,1,8,0:0:0:0:
240,188,20655,1,0,0:0:0:0:
240,188,21512,1,8,0:0:0:0:
240,188,21727,1,8,0:0:0:0:
240,188,21941,1,8,0:0:0:0:
240,188,22262,1,0,0:0:0:0:
240,188,22370,1,8,0:0:0:0:
240,188,22584,1,0,0:0:0:0:
240,188,22798,1,8,0:0:0:0:
240,188,23012,1,8,0:0:0:0:
240,188,23227,1,0,0:0:0:0:
240,188,23441,1,0,0:0:0:0:
240,188,23655,1,8,0:0:0:0:
240,188,23977,1,8,0:0:0:0:
240,188,24084,1,0,0:0:0:0:
240,188,24512,1,12,0:0:0:0:
240,188,24941,1,8,0:0:0:0:
240,188,25155,1,0,0:0:0:0:
240,188,25262,1,8,0:0:0:0:
240,188,25477,1,0,0:0:0:0:
240,188,25584,1,8,0:0:0:0:
240,188,25691,1,0,0:0:0:0:
240,188,25798,1,8,0:0:0:0:
240,188,26012,1,0,0:0:0:0:
240,188,26120,1,8,0:0:0:0:
240,188,26334,1,0,0:0:0:0:
240,188,26441,1,8,0:0:0:0:
240,188,26548,1,8,0:0:0:0:
240,188,26655,1,0,0:0:0:0:
240,188,26870,1,8,0:0:0:0:
240,188,26977,1,0,0:0:0:0:
240,188,27191,1,8,0:0:0:0:
240,188,27298,1,0,0:0:0:0:
240,188,27405,1,8,0:0:0:0:
240,188,27512,1,0,0:0:0:0:
240,188,28370,1,8,0:0:0:0:
240,188,28584,1,8,0:0:0:0:
240,188,28798,1,8,0:0:0:0:
240,188,29120,1,0,0:0:0:0:
240,188,29227,1,8,0:0:0:0:
240,188,29441,1,0,0:0:0:0:
240,188,29655,1,0,0:0:0:0:
240,188,29870,1,0,0:0:0:0:
240,188,30084,1,8,0:0:0:0:
240,188,30298,1,8,0:0:0:0:
240,188,30512,1,8,0:0:0:0:
240,188,30727,1,0,0:0:0:0:
240,188,30941,1,0,0:0:0:0:
240,188,31048,1,8,0:0:0:0:
240,188,31155,1,0,0:0:0:0:
240,188,31262,1,8,0:0:0:0:
240,188,31370,1,0,0:0:0:0:
240,188,31477,1,8,0:0:0:0:
240,188,31584,1,8,0:0:0:0:
240,188,31691,1,8,0:0:0:0:
240,188,31798,1,0,0:0:0:0:
240,188,32012,1,0,0:0:0:0:
240,188,32227,1,0,0:0:0:0:
240,188,32441,1,0,0:0:0:0:
240,188,32655,1,0,0:0:0:0:
240,188,32762,1,8,0:0:0:0:
240,188,32870,1,0,0:0:0:0:
240,188,32977,1,8,0:0:0:0:
240,188,33084,1,0,0:0:0:0:
240,188,33191,1,0,0:0:0:0:
240,188,33298,1,8,0:0:0:0:
240,188,33405,1,8,0:0:0:0:
240,188,33512,1,8,0:0:0:0:
240,188,33727,1,8,0:0:0:0:
240,188,33941,1,8,0:0:0:0:
240,188,34155,1,0,0:0:0:0:
240,188,34370,1,8,0:0:0:0:
240,188,34584,1,8,0:0:0:0:
240,188,34798,1,8,0:0:0:0:
240,188,35012,1,0,0:0:0:0:
240,188,35227,1,8,0:0:0:0:
240,188,35334,1,0,0:0:0:0:
240,188,35441,1,0,0:0:0:0:
240,188,35548,1,8,0:0:0:0:
240,188,35655,1,8,0:0:0:0:
240,188,35762,1,0,0:0:0:0:
240,188,35870,1,0,0:0:0:0:
240,188,35977,1,8,0:0:0:0:
240,188,36084,1,8,0:0:0:0:
240,188,36191,1,0,0:0:0:0:
240,188,36298,1,0,0:0:0:0:
240,188,36405,1,8,0:0:0:0:
240,188,36512,1,8,0:0:0:0:
240,188,36620,1,0,0:0:0:0:
240,188,36727,1,0,0:0:0:0:
240,188,36834,1,8,0:0:0:0:
240,188,36941,1,0,0:0:0:0:
240,188,40155,1,0,0:0:0:0:
240,188,40262,1,0,0:0:0:0:
240,188,40370,1,0,0:0:0:0:
240,188,40584,1,8,0:0:0:0:
240,188,40798,1,0,0:0:0:0:
240,188,41012,1,8,0:0:0:0:
240,188,41227,1,0,0:0:0:0:
240,188,41441,1,8,0:0:0:0:
240,188,41548,1,8,0:0:0:0:
240,188,41655,1,8,0:0:0:0:
240,188,41870,1,0,0:0:0:0:
240,188,41977,1,0,0:0:0:0:
240,188,42084,1,0,0:0:0:0:
240,188,42298,1,8,0:0:0:0:
240,188,42512,1,0,0:0:0:0:
240,188,42727,1,8,0:0:0:0:
240,188,42941,1,0,0:0:0:0:
240,188,43155,1,8,0:0:0:0:
240,188,43262,1,0,0:0:0:0:
240,188,43370,1,8,0:0:0:0:
240,188,43584,1,0,0:0:0:0:
240,188,43691,1,0,0:0:0:0:
240,188,43798,1,0,0:0:0:0:
240,188,44012,1,8,0:0:0:0:
240,188,44227,1,0,0:0:0:0:
240,188,44441,1,8,0:0:0:0:
240,188,44655,1,0,0:0:0:0:
240,188,44870,1,8,0:0:0:0:
240,188,44977,1,8,0:0:0:0:
240,188,45084,1,8,0:0:0:0:
240,188,45298,1,8,0:0:0:0:
240,188,45405,1,8,0:0:0:0:
240,188,45512,1,0,0:0:0:0:
240,188,45727,1,8,0:0:0:0:
240,188,45941,1,0,0:0:0:0:
240,188,46155,1,8,0:0:0:0:
240,188,46370,1,0,0:0:0:0:
240,188,46584,1,8,0:0:0:0:
240,188,46691,1,8,0:0:0:0:
240,188,46798,1,8,0:0:0:0:
240,188,47012,1,8,0:0:0:0:
240,188,47120,1,0,0:0:0:0:
240,188,47227,1,0,0:0:0:0:
240,188,47441,1,8,0:0:0:0:
240,188,47655,1,0,0:0:0:0:
240,188,47870,1,8,0:0:0:0:
240,188,48084,1,0,0:0:0:0:
240,188,48298,1,8,0:0:0:0:
240,188,48405,1,8,0:0:0:0:
240,188,48512,1,8,0:0:0:0:
240,188,48727,1,0,0:0:0:0:
240,188,48834,1,0,0:0:0:0:
240,188,48941,1,0,0:0:0:0:
240,188,49155,1,8,0:0:0:0:
240,188,49370,1,0,0:0:0:0:
240,188,49584,1,8,0:0:0:0:
240,188,49798,1,0,0:0:0:0:
240,188,50012,1,8,0:0:0:0:
240,188,50120,1,0,0:0:0:0:
240,188,50227,1,8,0:0:0:0:
240,188,50441,1,0,0:0:0:0:
240,188,50548,1,0,0:0:0:0:
240,188,50655,1,0,0:0:0:0:
240,188,50870,1,8,0:0:0:0:
240,188,51084,1,0,0:0:0:0:
240,188,51298,1,0,0:0:0:0:
240,188,51512,1,8,0:0:0:0:
240,188,51727,1,8,0:0:0:0:
240,188,51941,1,8,0:0:0:0:
240,188,52262,1,8,0:0:0:0:
240,188,52370,1,0,0:0:0:0:
240,188,52584,1,8,0:0:0:0:
240,188,52798,1,0,0:0:0:0:
240,188,53012,1,8,0:0:0:0:
240,188,53227,1,0,0:0:0:0:
240,188,53655,1,12,0:0:0:0:
240,188,54084,1,8,0:0:0:0:
240,188,54298,1,0,0:0:0:0:
240,188,54405,1,8,0:0:0:0:
240,188,54620,1,0,0:0:0:0:
240,188,54727,1,8,0:0:0:0:
240,188,54834,1,0,0:0:0:0:
240,188,54941,1,8,0:0:0:0:
240,188,55155,1,0,0:0:0:0:
240,188,55262,1,8,0:0:0:0:
240,188,55477,1,0,0:0:0:0:
240,188,55584,1,8,0:0:0:0:
240,188,55691,1,8,0:0:0:0:
240,188,55798,1,0,0:0:0:0:
240,188,56012,1,8,0:0:0:0:
240,188,56120,1,0,0:0:0:0:
240,188,56334,1,8,0:0:0:0:
240,188,56441,1,0,0:0:0:0:
240,188,56548,1,8,0:0:0:0:
240,188,56655,1,0,0:0:0:0:
240,188,56762,1,8,0:0:0:0:
240,188,56870,1,0,0:0:0:0:
240,188,57084,1,8,0:0:0:0:
240,188,57512,1,8,0:0:0:0:
240,188,57727,1,8,0:0:0:0:
240,188,57941,1,8,0:0:0:0:
240,188,58262,1,0,0:0:0:0:
240,188,58370,1,8,0:0:0:0:
240,188,58584,1,0,0:0:0:0:
240,188,58798,1,8,0:0:0:0:
240,188,59012,1,8,0:0:0:0:
240,188,59227,1,0,0:0:0:0:
240,188,59441,1,0,0:0:0:0:
240,188,59655,1,8,0:0:0:0:
240,188,59977,1,8,0:0:0:0:
240,188,60084,1,0,0:0:0:0:
240,188,60512,1,12,0:0:0:0:
240,188,60941,1,8,0:0:0:0:
240,188,61155,1,0,0:0:0:0:
240,188,61262,1,8,0:0:0:0:
240,188,61477,1,0,0:0:0:0:
240,188,61584,1,8,0:0:0:0:
240,188,61691,1,0,0:0:0:0:
240,188,61798,1,8,0:0:0:0:
240,188,62012,1,0,0:0:0:0:
240,188,62120,1,8,0:0:0:0:
240,188,62334,1,0,0:0:0:0:
240,188,62441,1,8,0:0:0:0:
240,188,62548,1,8,0:0:0:0:
240,188,62655,1,0,0:0:0:0:
240,188,62870,1,8,0:0:0:0:
240,188,62977,1,0,0:0:0:0:
240,188,63191,1,8,0:0:0:0:
240,188,63298,1,0,0:0:0:0:
240,188,63405,1,8,0:0:0:0:
240,188,63512,1,0,0:0:0:0:
240,188,63620,1,8,0:0:0:0:
240,188,63727,1,0,0:0:0:0:
240,188,63941,1,8,0:0:0:0:
240,188,64370,1,8,0:0:0:0:
240,188,64584,1,8,0:0:0:0:
240,188,64798,1,8,0:0:0:0:
240,188,65120,1,0,0:0:0:0:
240,188,65227,1,8,0:0:0:0:
240,188,65441,1,0,0:0:0:0:
240,188,65655,1,0,0:0:0:0:
240,188,65870,1,0,0:0:0:0:
240,188,66084,1,8,0:0:0:0:
240,188,66298,1,8,0:0:0:0:
240,188,66512,1,8,0:0:0:0:
240,188,66727,1,0,0:0:0:0:
240,188,66941,1,0,0:0:0:0:
240,188,67048,1,8,0:0:0:0:
240,188,67155,1,0,0:0:0:0:
240,188,67262,1,8,0:0:0:0:
240,188,67370,1,0,0:0:0:0:
240,188,67477,1,8,0:0:0:0:
240,188,67584,1,8,0:0:0:0:
240,188,67691,1,8,0:0:0:0:
240,188,67798,1,0,0:0:0:0:
240,188,68012,1,0,0:0:0:0:
240,188,68227,1,0,0:0:0:0:
240,188,68441,1,0,0:0:0:0:
240,188,68655,1,0,0:0:0:0:
240,188,68762,1,8,0:0:0:0:
240,188,68870,1,0,0:0:0:0:
240,188,68977,1,8,0:0:0:0:
240,188,69084,1,0,0:0:0:0:
240,188,69191,1,0,0:0:0:0:
240,188,69298,1,8,0:0:0:0:
240,188,69405,1,8,0:0:0:0:
240,188,69512,1,8,0:0:0:0:
240,188,69727,1,8,0:0:0:0:
240,188,69834,1,0,0:0:0:0:
240,188,69941,1,8,0:0:0:0:
240,188,70155,1,0,0:0:0:0:
240,188,70370,1,8,0:0:0:0:
240,188,70584,1,8,0:0:0:0:
240,188,70691,1,0,0:0:0:0:
240,188,70798,1,8,0:0:0:0:
240,188,71012,1,0,0:0:0:0:
240,188,71227,1,8,0:0:0:0:
240,188,71334,1,0,0:0:0:0:
240,188,71441,1,0,0:0:0:0:
240,188,71548,1,8,0:0:0:0:
240,188,71655,1,8,0:0:0:0:
240,188,71762,1,0,0:0:0:0:
240,188,71870,1,0,0:0:0:0:
240,188,71977,1,8,0:0:0:0:
240,188,72084,1,8,0:0:0:0:
240,188,72191,1,0,0:0:0:0:
240,188,72298,1,0,0:0:0:0:
240,188,72405,1,8,0:0:0:0:
240,188,72512,1,8,0:0:0:0:
240,188,72620,1,0,0:0:0:0:
240,188,72727,1,0,0:0:0:0:
240,188,72834,1,8,0:0:0:0:
240,188,72941,1,0,0:0:0:0:
